Details for this torrent 

Law and Order SVU Season 1 S01 DVDRip XviD AC3
Type:
Video > TV shows
Files:
45
Size:
7.5 GiB (8056015170 Bytes)

Info:
IMDB
Spoken language(s):
English
Texted language(s):
English
Tag(s):
law and order law and order svu law and order special victims law and order svu s01 law and order svu season 1 crime drama dvdrip

Uploaded:
2012-03-06 03:31:49 GMT
By:
shirepirate VIP

Seeders:
20
Leechers:
11
Comments
8  

Info Hash:
 
87B50AAE6FCA4C2F6B7261DD4F331E3129E8D229
picture




shirepirate


Law and Order SVU Season 1 S01 DVDRip XviD AC3

English language audio, English subtitles included


Episode list: 
http://en.wikipedia.org/wiki/Law_%26_Order:_Special_Victims_Unit_(season_1)#Episodes

Wikipedia: 
http://en.wikipedia.org/wiki/Law_%26_Order:_Special_Victims_Unit_(season_1)

IMDB: 
http://www.imdb.com/title/tt0203259/

Amazon: 
http://www.amazon.com/dp/B0000AVHCA


Media information of episode 1:

General

Format                           : AVI
Format/Info                      : Audio Video Interleave
File size                        : 349 MiB
Duration                         : 43mn 23s
Overall bit rate                 : 1 123 Kbps
Writing application              : Nandub v1.0rc2
Writing library                  : Nandub build 1853/release

Video

ID                               : 0
Format                           : MPEG-4 Visual
Format profile                   : Simple@L3
Format settings, BVOP            : No
Format settings, QPel            : No
Format settings, GMC             : No warppoints
Format settings, Matrix          : Default (H.263)
Codec ID                         : XVID
Codec ID/Hint                    : XviD
Duration                         : 43mn 23s
Bit rate                         : 924 Kbps
Width                            : 576 pixels
Height                           : 432 pixels
Display aspect ratio             : 4:3
Frame rate                       : 23.976 fps
Color space                      : YUV
Chroma subsampling               : 4:2:0
Bit depth                        : 8 bits
Scan type                        : Progressive
Compression mode                 : Lossy
Bits/(Pixel*Frame)               : 0.155
Stream size                      : 287 MiB (82%)
Writing library                  : XviD 0.0.09 (UTC 2003-03-25)

Audio

ID                               : 1
Format                           : AC-3
Format/Info                      : Audio Coding 3
Format profile                   : Dolby Digital
Mode extension                   : CM (complete main)
Codec ID                         : 2000
Duration                         : 43mn 23s
Bit rate mode                    : Constant
Bit rate                         : 192 Kbps
Channel(s)                       : 2 channels
Channel positions                : Front: L R
Sampling rate                    : 48.0 KHz
Bit depth                        : 16 bits
Compression mode                 : Lossy
Stream size                      : 59.6 MiB (17%)
Alignment                        : Split accross interleaves
Interleave, duration             : 96 ms (2.30 video frames)
Interleave, preload duration     : 500 ms		

Comments

No sound, maybe there is for others but not on a single episode for me.
well sir, then u r a moron!
Hey, I see that you are a mod. I have a favor to ask. I recently uploaded Strike Back Season 1 BluRay, but I accidentally put it in the category of Video-High Res Movies instead of Video-High TV Shows. Could you possibly change that for me? Thanks! Here is the link:

http://thepiratebay.se/torrent/7759962/Strike.Back.S01.Season.1.720p.BluRay.x264-AVCHD
Please seed! :)
Sound or Subs don't work in Windows Media Player (for me), but it works in VLC. If anyone else is having sound problems, try a different player.

Other than that, good quality.
somethings weird with this torrent. Stocks and bondage(E09) isnt on there E09 is E10 and E10 is actually E11 but theres still 22 episode in the episode list and in the torrent..im confused
You rock. Thank you!
For anyone with Twistedm16's question...

The episode labelled [e09 - stocks and bondage] is really [e10 - closure]

Episode labelled [e10 - closure] is really [e11 - bad blood]

And finally, episode labelled [e11 - bad blood] is actually the "missing" [e09 - stocks and bondage]

They are just a little jumbled and the quality/subtitles are great quality.

a/10
v/10