Details for this torrent 

DJ Cassidy Ft. Robin Thicke & Jessie J - Calling All Hearts
Type:
Video > Music videos
Files:
1
Size:
83.42 MiB (87476365 Bytes)
Tag(s):
DJ Cassidy Robin Thicke Jessie J Sbyky
Uploaded:
2014-03-25 04:15:21 GMT
By:
Sbyky Trusted
Seeders:
1
Leechers:
0
Comments
0  

Info Hash:
 
8A294B225797AC48B9F8C18B40CD2D7E27E82F97





General
Complete name                            : DJ Cassidy Ft. Robin Thicke & Jessie J - Calling All Hearts [Music Video] 720p [Sbyky].MP4
Format                                   : MPEG-4
Format profile                           : Base Media
Codec ID                                 : isom
File size                                : 83.4 MiB
Duration                                 : 6mn 34s
Overall bit rate mode                    : Variable
Overall bit rate                         : 1 775 Kbps
Encoded date                             : UTC 2014-02-27 22:39:48
Tagged date                              : UTC 2014-02-27 22:39:48

Video
ID                                       : 1
Format                                   : AVC
Format/Info                              : Advanced Video Codec
Format profile                           : Main@L3.1
Format settings, CABAC                   : Yes
Format settings, ReFrames                : 3 frames
Codec ID                                 : avc1
Codec ID/Info                            : Advanced Video Coding
Duration                                 : 6mn 34s
Duration_LastFrame                       : -1ms
Bit rate                                 : 1 647 Kbps
Width                                    : 1 280 pixels
Height                                   : 720 pixels
Display aspect ratio                     : 16:9
Frame rate mode                          : Constant
Frame rate                               : 23.976 fps
Color space                              : YUV
Chroma subsampling                       : 4:2:0
Bit depth                                : 8 bits
Scan type                                : Progressive
Bits/(Pixel*Frame)                       : 0.075
Stream size                              : 77.4 MiB (93%)
Encoded date                             : UTC 2014-02-27 22:39:48
Tagged date                              : UTC 2014-02-27 22:39:48

Audio
ID                                       : 2
Format                                   : AAC
Format/Info                              : Advanced Audio Codec
Format profile                           : LC
Codec ID                                 : 40
Duration                                 : 6mn 34s
Bit rate mode                            : Variable
Bit rate                                 : 126 Kbps
Channel(s)                               : 2 channels
Channel positions                        : Front: L R
Sampling rate                            : 44.1 KHz
Compression mode                         : Lossy
Stream size                              : 5.90 MiB (7%)
Encoded date                             : UTC 2014-02-27 22:41:56
Tagged date                              : UTC 2014-02-27 22:41:56

Shared By Sbyky